From anonymous, 2 Months ago, written in Plain Text.
Embed
  1. General
  2. Complete name                  : 722.mp4
  3. Format                         : MPEG-4
  4. Format profile                 : Base Media
  5. Codec ID                       : isom (isom/iso2/avc1/mp41)
  6. File size                      : 1.01 GiB
  7. Duration                       : 22 min 0 s
  8. Overall bit rate mode          : Variable
  9. Overall bit rate               : 6 553 kb/s
  10. Writing application            : Lavf57.71.100
  11.  
  12. Video
  13. ID                             : 1
  14. Format                         : AVC
  15. Format/Info                    : Advanced Video Codec
  16. Format profile                 : High@L4
  17. Format settings, CABAC         : Yes
  18. Format settings, RefFrames     : 4 frames
  19. Codec ID                       : avc1
  20. Codec ID/Info                  : Advanced Video Coding
  21. Duration                       : 21 min 59 s
  22. Bit rate                       : 6 000 kb/s
  23. Width                          : 1 920 pixels
  24. Height                         : 1 080 pixels
  25. Display aspect ratio           : 16:9
  26. Frame rate mode                : Constant
  27. Frame rate                     : 23.976 (23976/1000) FPS
  28. Color space                    : YUV
  29. Chroma subsampling             : 4:2:0
  30. Bit depth                      : 8 bits
  31. Scan type                      : Progressive
  32. Bits/(Pixel*Frame)             : 0.121
  33. Stream size                    : 945 MiB (92%)
  34. Writing library                : x264 core 148 r2748 97eaef2
  35. Encoding settings              : cabac=1 / ref=4 / deblock=1:1:1 / analyse=0x3:0x133 / me=umh / subme=10 / psy=1 / psy_rd=0.40:0.00 / mixed_ref=1 / me_range=24 / chroma_me=1 / trellis=2 / 8x8dct=1 / cqm=0 / deadzone=21,11 / fast_pskip=1 / chroma_qp_offset=-2 / threads=12 / lookahead_threads=3 / sliced_threads=0 / nr=0 / decimate=1 / interlaced=0 / bluray_compat=0 / constrained_intra=0 / bframes=10 / b_pyramid=2 / b_adapt=2 / b_bias=0 / direct=3 / weightb=1 / open_gop=0 / weightp=2 / keyint=250 / keyint_min=23 / scenecut=40 / intra_refresh=0 / rc_lookahead=60 / rc=2pass / mbtree=1 / bitrate=6000 / ratetol=1.0 / qcomp=0.60 / qpmin=0 / qpmax=69 / qpstep=4 / cplxblur=20.0 / qblur=0.5 / ip_ratio=1.40 / aq=1:0.60
  36.  
  37. Audio #1
  38. ID                             : 2
  39. Format                         : AC-3
  40. Format/Info                    : Audio Coding 3
  41. Format settings, Endianness    : Big
  42. Codec ID                       : ac-3
  43. Duration                       : 21 min 59 s
  44. Bit rate mode                  : Constant
  45. Bit rate                       : 384 kb/s
  46. Channel(s)                     : 6 channels
  47. Channel positions              : Front: L C R, Side: L R, LFE
  48. Sampling rate                  : 48.0 kHz
  49. Frame rate                     : 31.250 FPS (1536 SPF)
  50. Bit depth                      : 16 bits
  51. Compression mode               : Lossy
  52. Stream size                    : 60.4 MiB (6%)
  53. Service kind                   : Complete Main
  54. Default                        : Yes
  55. Alternate group                : 1
  56.  
  57. Audio #2
  58. ID                             : 3
  59. Format                         : AAC
  60. Format/Info                    : Advanced Audio Codec
  61. Format profile                 : LC
  62. Codec ID                       : 40
  63. Duration                       : 22 min 0 s
  64. Bit rate mode                  : Variable
  65. Bit rate                       : 157 kb/s
  66. Maximum bit rate               : 164 kb/s
  67. Channel(s)                     : 2 channels
  68. Channel positions              : Front: L R
  69. Sampling rate                  : 48.0 kHz
  70. Frame rate                     : 46.875 FPS (1024 SPF)
  71. Compression mode               : Lossy
  72. Stream size                    : 24.8 MiB (2%)
  73. Default                        : No
  74. Alternate group                : 1